<?xml version="1.0" standalone="no"?>
<!DOCTYPE svg PUBLIC "-//W3C//DTD SVG 1.1//EN" "http://www.w3.org/Graphics/SVG/1.1/DTD/svg11.dtd" >
<svg xmlns="http://www.w3.org/2000/svg" xmlns:xlink="http://www.w3.org/1999/xlink" version="1.1">
<metadata>
Created by FontForge 20201107 at Sat Dec 23 04:03:09 2006
 By www-data
2000 Albert-Jan Pool, published by Fontshop International for the FontFont library.
</metadata>
<defs>
<font id="DINCond-Bold" horiz-adv-x="399" >
  <font-face 
    font-family="DINCond-Bold"
    font-weight="500"
    font-stretch="normal"
    units-per-em="1000"
    panose-1="0 0 0 0 0 0 0 0 0 0"
    ascent="800"
    descent="-200"
    x-height="527"
    cap-height="712"
    bbox="-102 -194 1003 965"
    underline-thickness="77"
    underline-position="-191"
    stemh="101"
    stemv="106"
    unicode-range="U+0020-FB02"
  />
<missing-glyph horiz-adv-x="200" 
 />
    <glyph glyph-name=".notdef" horiz-adv-x="200" 
 />
    <glyph glyph-name="space" unicode=" " horiz-adv-x="179" 
 />
    <glyph glyph-name="exclam" unicode="!" horiz-adv-x="257" 
d="M193 200h-106v512h106v-512zM202 0h-124v123h124v-123z" />
    <glyph glyph-name="quotedbl" unicode="&#x22;" horiz-adv-x="437" 
d="M174 511h-102v201h102v-201zM364 511h-101v201h101v-201z" />
    <glyph glyph-name="numbersign" unicode="#" horiz-adv-x="608" 
d="M561 428h-84l-18 -127h71v-100h-87l-29 -201h-111l29 201h-107l-29 -201h-110l29 201h-68v100h84l18 127h-71l-1 101h88l26 183h111l-27 -183h107l27 183h110l-26 -183h68v-101zM367 428h-107l-19 -127h107z" />
    <glyph glyph-name="dollar" unicode="$" horiz-adv-x="449" 
d="M407 197c0 -73 -10 -122 -46 -157c-20 -20 -50 -35 -88 -42v-112h-99v111c-39 6 -69 21 -91 43c-34 34 -45 78 -45 153h112c0 -38 4 -62 20 -80c10 -11 27 -19 52 -19c26 0 42 7 53 20c15 17 20 41 20 79c0 76 -12 95 -67 117l-85 35c-72 30 -99 69 -99 179
c0 64 19 116 58 151c20 18 44 31 72 37v94h99v-93c33 -6 59 -19 79 -38c37 -36 50 -87 50 -155h-112c0 32 -2 57 -17 76c-10 13 -26 21 -50 21c-23 0 -37 -8 -48 -20c-13 -15 -19 -39 -19 -70c0 -58 9 -76 59 -96l84 -34c86 -35 108 -80 108 -200z" />
    <glyph glyph-name="percent" unicode="%" horiz-adv-x="732" 
d="M685 112c0 -79 -59 -120 -127 -120s-127 41 -127 120v133c0 79 59 120 127 120s127 -41 127 -120v-133zM301 467c0 -79 -59 -120 -127 -120s-127 41 -127 120v133c0 79 59 120 127 120s127 -41 127 -120v-133zM532 712l-248 -712h-82l248 712h82zM214 469v129
c0 31 -16 45 -40 45s-41 -14 -41 -45v-129c0 -31 17 -45 41 -45s40 14 40 45zM598 114v129c0 31 -16 45 -40 45s-40 -14 -40 -45v-129c0 -31 16 -45 40 -45s40 14 40 45z" />
    <glyph glyph-name="ampersand" unicode="&#x26;" horiz-adv-x="499" 
d="M497 0h-111l-39 63c-39 -44 -81 -71 -146 -71c-97 0 -167 69 -167 183c0 81 38 146 106 215c-46 62 -75 110 -75 170c0 105 63 159 142 159c97 0 144 -66 144 -149c0 -84 -35 -138 -91 -196l85 -131c16 34 26 84 29 131h91c-3 -80 -29 -168 -61 -225zM295 144l-103 160
c-41 -42 -59 -82 -59 -122c0 -56 32 -95 77 -95c32 0 59 20 85 57zM256 568c0 34 -21 56 -48 56c-30 0 -48 -23 -48 -60c0 -31 17 -65 47 -105c32 35 49 61 49 109z" />
    <glyph glyph-name="quotesingle" unicode="'" horiz-adv-x="247" 
d="M174 511h-102v201h102v-201z" />
    <glyph glyph-name="parenleft" unicode="(" horiz-adv-x="265" 
d="M224 -23l-71 -71c-32 32 -61 61 -81 96c-21 37 -24 78 -24 118v472c0 40 3 81 24 118c21 36 49 64 81 96l71 -71c-23 -23 -42 -42 -56 -67c-10 -18 -14 -46 -14 -82v-460c0 -36 4 -64 14 -82c14 -25 33 -44 56 -67z" />
    <glyph glyph-name="parenright" unicode=")" horiz-adv-x="265" 
d="M218 120c0 -40 -4 -81 -25 -118c-19 -35 -49 -64 -80 -96l-72 71c23 23 43 42 56 67c11 18 15 46 15 82v460c0 36 -4 64 -15 82c-13 25 -33 44 -56 67l72 71c31 -32 60 -60 80 -96c21 -37 25 -78 25 -118v-472z" />
    <glyph glyph-name="asterisk" unicode="*" horiz-adv-x="417" 
d="M374 479l-38 -65l-93 58l4 -126h-77l4 126l-94 -58l-37 65l98 51l-98 51l37 66l94 -59l-4 126h77l-4 -126l93 59l38 -66l-98 -51z" />
    <glyph glyph-name="plus" unicode="+" horiz-adv-x="457" 
d="M413 238h-134v-134h-101v134h-134v101h134v134h101v-134h134v-101z" />
    <glyph glyph-name="comma" unicode="," horiz-adv-x="229" 
d="M172 -65l-115 -85v274h115v-189z" />
    <glyph glyph-name="hyphen" unicode="-" horiz-adv-x="295" 
d="M249 238h-202v101h202v-101z" />
    <glyph glyph-name="period" unicode="." horiz-adv-x="234" 
d="M179 0h-123v123h123v-123z" />
    <glyph glyph-name="slash" unicode="/" horiz-adv-x="298" 
d="M291 786l-185 -860h-100l185 860h100z" />
    <glyph glyph-name="zero" unicode="0" horiz-adv-x="401" 
d="M359 152c0 -57 -17 -91 -45 -118s-69 -42 -113 -42s-86 15 -114 42s-45 61 -45 118v408c0 57 17 91 45 118s70 42 114 42s85 -15 113 -42s45 -61 45 -118v-408zM253 148v416c0 41 -23 61 -52 61s-53 -20 -53 -61v-416c0 -41 24 -61 53 -61s52 20 52 61z" />
    <glyph glyph-name="one" unicode="1" horiz-adv-x="401" 
d="M283 0h-106v588l-107 -82v120l107 86h106v-712z" />
    <glyph glyph-name="two" unicode="2" horiz-adv-x="401" 
d="M360 0h-313v90l178 346c16 30 29 75 29 127c0 41 -22 62 -51 62s-53 -20 -53 -61v-46h-106v42c0 57 16 91 44 118s72 42 115 42s81 -11 110 -38c28 -26 47 -66 47 -123c0 -52 -16 -112 -39 -156l-161 -308h200v-95z" />
    <glyph glyph-name="three" unicode="3" horiz-adv-x="401" 
d="M361 203c0 -76 -2 -126 -47 -170c-28 -27 -70 -41 -114 -41s-87 15 -115 42s-44 61 -44 118v42h106v-46c0 -41 24 -61 53 -61c17 0 30 8 38 18c15 19 17 61 17 105c0 48 -1 84 -16 104c-9 12 -22 18 -40 18h-35v89h35c15 0 26 5 34 14c16 18 16 53 16 90
c0 36 -1 67 -14 84c-8 10 -19 16 -35 16c-27 0 -48 -19 -48 -57v-50h-106v43c0 55 16 91 44 118s66 41 110 41c47 0 84 -15 109 -40c32 -32 46 -78 46 -148c0 -48 -2 -82 -18 -113c-9 -17 -22 -31 -39 -42c17 -12 32 -26 41 -43c19 -34 22 -70 22 -131z" />
    <glyph glyph-name="four" unicode="4" horiz-adv-x="401" 
d="M377 111h-49v-111h-106v111h-198v95l183 506h103l-177 -506h89v127h106v-127h49v-95z" />
    <glyph glyph-name="five" unicode="5" horiz-adv-x="401" 
d="M362 240c0 -94 -1 -157 -48 -204c-28 -28 -69 -44 -113 -44s-86 14 -114 41s-45 62 -45 119v35h106v-49c0 -43 23 -62 53 -62c17 0 29 5 39 19c16 21 16 76 16 135s0 104 -14 126c-9 15 -24 22 -41 22c-30 0 -53 -22 -53 -61v-15h-101v410h307v-95h-210v-191
c10 13 23 26 37 34c15 8 33 13 51 13c44 0 73 -14 96 -43c30 -37 34 -103 34 -190z" />
    <glyph glyph-name="six" unicode="6" horiz-adv-x="401" 
d="M361 216c0 -95 -11 -134 -34 -167c-28 -40 -75 -57 -127 -57c-57 0 -99 21 -124 57c-28 40 -36 81 -36 167c0 64 12 122 29 168l125 328h110l-117 -288c12 9 29 12 44 12c38 0 71 -14 94 -44c26 -33 36 -71 36 -176zM255 217c0 43 1 92 -16 114c-9 12 -23 18 -38 18
s-30 -6 -39 -18c-17 -22 -16 -71 -16 -114s-1 -89 16 -112c9 -12 24 -18 39 -18c16 0 29 6 38 18c17 22 16 69 16 112z" />
    <glyph glyph-name="seven" unicode="7" horiz-adv-x="401" 
d="M365 624l-187 -624h-106l187 617h-124v-95h-102v190h332v-88z" />
    <glyph glyph-name="eight" unicode="8" horiz-adv-x="401" 
d="M361 201c0 -78 -5 -125 -47 -167c-28 -28 -70 -42 -113 -42s-86 14 -114 42c-42 42 -47 89 -47 167c0 60 4 95 21 126c9 18 24 32 42 45c-17 12 -30 27 -39 44c-16 31 -19 62 -19 111c0 69 10 116 46 152c28 28 66 41 109 41s82 -13 110 -41c36 -36 46 -83 46 -152
c0 -49 -3 -80 -19 -111c-9 -17 -22 -32 -39 -44c18 -13 32 -27 42 -45c17 -31 21 -66 21 -126zM255 206c0 45 1 84 -16 105c-9 11 -23 17 -38 17s-30 -6 -39 -17c-17 -21 -16 -60 -16 -105c0 -41 0 -81 16 -102c9 -11 24 -17 39 -17s29 6 38 17c16 20 16 61 16 102zM250 522
c0 34 0 71 -15 89c-8 10 -20 14 -34 14s-27 -4 -35 -14c-15 -18 -15 -55 -15 -89c0 -35 -1 -75 18 -93c8 -8 19 -12 32 -12s24 4 32 12c19 18 17 58 17 93z" />
    <glyph glyph-name="nine" unicode="9" horiz-adv-x="401" 
d="M361 496c0 -64 -12 -122 -29 -168l-125 -328h-110l117 288c-12 -9 -28 -12 -43 -12c-38 0 -72 14 -95 44c-26 33 -36 71 -36 176c0 95 12 134 35 167c28 40 74 57 126 57c57 0 100 -21 125 -57c28 -40 35 -81 35 -167zM255 495c0 43 1 89 -16 112c-9 12 -23 18 -38 18
c-16 0 -30 -6 -39 -18c-17 -22 -16 -69 -16 -112s-1 -92 16 -114c9 -12 24 -18 39 -18s29 6 38 18c17 22 16 71 16 114z" />
    <glyph glyph-name="colon" unicode=":" horiz-adv-x="257" 
d="M202 313h-124v123h124v-123zM202 0h-124v123h124v-123z" />
    <glyph glyph-name="semicolon" unicode=";" horiz-adv-x="257" 
d="M198 -65l-116 -85v274h116v-189zM202 313h-124v123h124v-123z" />
    <glyph glyph-name="less" unicode="&#x3c;" horiz-adv-x="401" 
d="M367 60l-333 195v74l333 194v-116l-203 -115l203 -115v-117z" />
    <glyph glyph-name="equal" unicode="=" horiz-adv-x="457" 
d="M413 326h-369v101h369v-101zM413 145h-369v101h369v-101z" />
    <glyph glyph-name="greater" unicode="&#x3e;" horiz-adv-x="401" 
d="M367 255l-333 -195v117l203 115l-203 115v116l333 -194v-74z" />
    <glyph glyph-name="question" unicode="?" horiz-adv-x="426" 
d="M393 524c0 -55 -10 -91 -34 -123l-59 -79c-15 -20 -23 -41 -23 -65v-57h-106v69c0 32 13 62 31 86l59 79c22 29 26 54 26 93c0 35 -4 59 -20 77c-11 12 -24 19 -43 19c-18 0 -32 -6 -43 -18c-18 -20 -19 -50 -19 -78h-106c0 60 12 111 47 144c28 26 66 47 120 47
c53 0 94 -16 122 -45c35 -35 48 -79 48 -149zM286 0h-124v123h124v-123z" />
    <glyph glyph-name="at" unicode="@" horiz-adv-x="608" 
d="M554 0h-102v40c-9 -12 -22 -26 -35 -33c-15 -9 -35 -15 -54 -15c-43 0 -71 13 -95 41c-21 24 -30 53 -30 114v188c0 61 9 90 30 114c24 28 52 41 95 41c20 0 38 -5 54 -14c11 -6 23 -16 31 -27v83c0 59 -29 89 -83 89h-130c-54 0 -82 -30 -82 -89v-396
c0 -35 8 -53 29 -73l-77 -76c-42 41 -58 77 -58 144v417c0 58 17 93 46 121c28 28 68 43 118 43h178c50 0 90 -15 118 -43c29 -28 47 -63 47 -121v-548zM448 148v186c0 41 -23 62 -52 62s-52 -21 -52 -62v-186c0 -41 23 -61 52 -61s52 20 52 61z" />
    <glyph glyph-name="A" unicode="A" horiz-adv-x="468" 
d="M462 0h-117l-29 141h-165l-28 -141h-118l175 712h109zM295 242l-61 298l-61 -298h122z" />
    <glyph glyph-name="B" unicode="B" horiz-adv-x="472" 
d="M423 211c0 -81 -12 -131 -46 -166c-30 -31 -74 -45 -140 -45h-177v712h178c66 0 109 -14 139 -44c32 -33 44 -80 44 -150c0 -48 -5 -88 -37 -120c-11 -11 -23 -19 -37 -25c15 -6 28 -15 38 -26c35 -38 38 -92 38 -136zM311 212c0 79 -25 111 -85 111h-54v-222h54
c61 0 85 28 85 111zM309 515c0 72 -24 96 -84 96h-53v-193h53c59 0 84 29 84 97z" />
    <glyph glyph-name="C" unicode="C" horiz-adv-x="447" 
d="M413 189c-2 -64 -23 -119 -59 -152c-32 -29 -70 -45 -123 -45c-68 0 -108 26 -138 60c-53 60 -52 163 -52 303s-1 245 52 305c30 34 70 60 138 60c54 0 92 -16 124 -46c35 -33 55 -87 57 -150h-112c-1 26 -5 51 -17 69c-10 16 -25 26 -52 26s-43 -11 -53 -27
c-21 -34 -25 -106 -25 -236s4 -202 25 -236c10 -16 26 -27 53 -27s43 10 53 26c12 18 16 44 17 70h112z" />
    <glyph glyph-name="D" unicode="D" horiz-adv-x="472" 
d="M431 356c0 -137 1 -238 -52 -297c-29 -33 -70 -59 -138 -59h-181v712h181c68 0 109 -26 138 -59c53 -59 52 -160 52 -297zM319 357c0 124 -3 192 -24 225c-11 17 -30 29 -57 29h-66v-510h66c27 0 46 12 57 29c21 33 24 103 24 227z" />
    <glyph glyph-name="E" unicode="E" horiz-adv-x="396" 
d="M359 0h-299v712h299v-101h-187v-202h161v-101h-161v-207h187v-101z" />
    <glyph glyph-name="F" unicode="F" horiz-adv-x="390" 
d="M359 611h-187v-202h161v-101h-161v-308h-112v712h299v-101z" />
    <glyph glyph-name="G" unicode="G" horiz-adv-x="455" 
d="M413 190c0 -129 -76 -198 -182 -198c-68 0 -108 26 -138 60c-53 60 -52 164 -52 304s-1 244 52 304c30 34 70 60 138 60c55 0 97 -18 127 -48c35 -36 53 -88 55 -149h-112c-1 40 -10 96 -70 96c-27 0 -43 -11 -53 -27c-21 -34 -25 -106 -25 -236s4 -202 25 -236
c10 -16 26 -27 53 -27c48 0 70 42 70 91v111h-70v92h182v-197z" />
    <glyph glyph-name="H" unicode="H" horiz-adv-x="483" 
d="M423 0h-112v312h-139v-312h-112v712h112v-300h139v300h112v-712z" />
    <glyph glyph-name="I" unicode="I" horiz-adv-x="232" 
d="M172 0h-112v712h112v-712z" />
    <glyph glyph-name="J" unicode="J" horiz-adv-x="389" 
d="M335 186c0 -57 -16 -106 -49 -140c-34 -36 -80 -54 -143 -54c-58 0 -106 21 -140 57l78 75c12 -17 36 -31 62 -31c46 0 80 32 80 93v526h112v-526z" />
    <glyph glyph-name="K" unicode="K" horiz-adv-x="469" 
d="M462 0h-121l-115 293l-54 -110v-183h-112v712h112v-335l155 335h113l-143 -295z" />
    <glyph glyph-name="L" unicode="L" horiz-adv-x="383" 
d="M359 0h-299v712h112v-611h187v-101z" />
    <glyph glyph-name="M" unicode="M" horiz-adv-x="598" 
d="M538 0h-112v444l-97 -292h-62l-95 287v-439h-112v712h101l138 -374l137 374h102v-712z" />
    <glyph glyph-name="N" unicode="N" horiz-adv-x="499" 
d="M439 0h-99l-168 423v-423h-112v712h100l167 -423v423h112v-712z" />
    <glyph glyph-name="O" unicode="O" horiz-adv-x="462" 
d="M421 356c0 -140 1 -244 -52 -304c-30 -34 -70 -60 -138 -60s-108 26 -138 60c-53 60 -52 164 -52 304s-1 244 52 304c30 34 70 60 138 60s108 -26 138 -60c53 -60 52 -164 52 -304zM309 356c0 130 -3 202 -24 236c-10 16 -27 27 -54 27s-43 -11 -53 -27
c-21 -34 -25 -106 -25 -236s4 -202 25 -236c10 -16 26 -27 53 -27s44 11 54 27c21 34 24 106 24 236z" />
    <glyph glyph-name="P" unicode="P" horiz-adv-x="459" 
d="M422 496c0 -144 -48 -218 -183 -218h-67v-278h-112v712h179c129 0 183 -67 183 -216zM310 495c0 63 -9 116 -69 116h-69v-232h69c60 0 69 53 69 116z" />
    <glyph glyph-name="Q" unicode="Q" horiz-adv-x="462" 
d="M451 39l-52 -62l-58 49c-27 -21 -62 -34 -110 -34c-68 0 -108 26 -138 60c-53 60 -52 164 -52 304s-1 244 52 304c30 34 70 60 138 60s108 -26 138 -60c53 -60 52 -164 52 -304c0 -117 0 -205 -29 -267zM309 356c0 131 -2 202 -24 236c-10 16 -27 27 -54 27
s-43 -11 -53 -27c-22 -34 -25 -105 -25 -236s3 -202 25 -236c10 -16 26 -27 53 -27c10 0 17 1 24 5l-37 31l52 62l29 -24c9 39 10 93 10 189z" />
    <glyph glyph-name="R" unicode="R" horiz-adv-x="478" 
d="M445 0h-117l-93 292h-63v-292h-112v712h180c130 0 182 -63 182 -210c0 -88 -18 -151 -83 -186zM310 502c0 59 -9 109 -69 109h-69v-218h69c60 0 69 50 69 109z" />
    <glyph glyph-name="S" unicode="S" horiz-adv-x="442" 
d="M404 197c0 -73 -10 -122 -46 -157c-29 -28 -76 -47 -139 -47c-62 0 -108 17 -138 47c-34 34 -46 78 -46 153h112c0 -38 4 -62 20 -80c10 -11 27 -19 52 -19c26 0 43 7 54 20c15 17 19 41 19 79c0 76 -12 95 -67 117l-85 35c-72 30 -99 69 -99 179c0 64 19 116 58 151
c31 27 71 43 122 43c57 0 99 -15 128 -43c37 -36 50 -87 50 -155h-112c0 32 -2 57 -17 76c-10 13 -26 21 -50 21c-23 0 -37 -8 -48 -20c-13 -15 -19 -39 -19 -70c0 -58 9 -76 59 -96l84 -34c85 -35 108 -80 108 -200z" />
    <glyph glyph-name="T" unicode="T" horiz-adv-x="393" 
d="M372 611h-120v-611h-112v611h-119v101h351v-101z" />
    <glyph glyph-name="U" unicode="U" horiz-adv-x="471" 
d="M417 175c0 -54 -18 -99 -49 -131c-34 -35 -79 -52 -132 -52s-99 17 -133 52c-31 32 -49 77 -49 131v537h112v-543c0 -51 32 -76 70 -76s69 25 69 76v543h112v-537z" />
    <glyph glyph-name="V" unicode="V" horiz-adv-x="437" 
d="M433 712l-157 -712h-116l-156 712h123l91 -540l92 540h123z" />
    <glyph glyph-name="W" unicode="W" horiz-adv-x="714" 
d="M710 712l-134 -712h-117l-102 541l-101 -541h-117l-135 712h123l70 -540l98 540h124l99 -540l69 540h123z" />
    <glyph glyph-name="X" unicode="X" horiz-adv-x="432" 
d="M421 0h-123l-82 256l-82 -256h-123l141 369l-130 343h123l71 -238l71 238h123l-133 -343z" />
    <glyph glyph-name="Y" unicode="Y" horiz-adv-x="389" 
d="M388 712l-138 -433v-279h-112v279l-138 433h124l70 -282l71 282h123z" />
    <glyph glyph-name="Z" unicode="Z" horiz-adv-x="373" 
d="M341 0h-310v84l194 527h-182v101h298v-84l-193 -527h193v-101z" />
    <glyph glyph-name="bracketleft" unicode="[" horiz-adv-x="282" 
d="M253 -74h-200v860h200v-94h-94v-672h94v-94z" />
    <glyph glyph-name="backslash" unicode="\" horiz-adv-x="298" 
d="M291 -74h-100l-185 860h100z" />
    <glyph glyph-name="bracketright" unicode="]" horiz-adv-x="282" 
d="M228 -74h-199v94h93v672h-93v94h199v-860z" />
    <glyph glyph-name="asciicircum" unicode="^" horiz-adv-x="463" 
d="M418 434h-103l-83 177l-83 -177h-104l140 283h93z" />
    <glyph glyph-name="underscore" unicode="_" horiz-adv-x="457" 
d="M457 -153h-457v77h457v-77z" />
    <glyph glyph-name="grave" unicode="`" 
d="M245 587h-74l-87 139h89z" />
    <glyph glyph-name="a" unicode="a" 
d="M350 0h-100v45c-9 -13 -20 -27 -32 -35c-16 -11 -33 -18 -60 -18c-44 0 -72 13 -99 44c-21 25 -32 65 -32 118c0 48 17 90 49 118c26 23 60 36 121 36h47v73c0 39 -18 61 -51 61c-16 0 -27 -6 -35 -15c-11 -12 -16 -27 -16 -49h-106c0 42 12 81 45 114
c25 25 68 43 111 43c44 0 85 -11 112 -39c28 -28 46 -67 46 -124v-372zM244 155v78h-35c-23 0 -40 -2 -55 -16c-13 -12 -21 -38 -21 -59c0 -47 19 -73 55 -73c32 0 56 27 56 70z" />
    <glyph glyph-name="b" unicode="b" horiz-adv-x="408" 
d="M372 264c0 -114 -2 -188 -37 -231c-24 -30 -54 -41 -93 -41c-19 0 -38 6 -53 15c-11 6 -29 23 -35 33v-40h-102v712h106v-219c8 11 20 22 31 28c15 9 34 14 53 14c41 0 69 -12 93 -41c35 -43 37 -116 37 -230zM266 264c0 78 -1 131 -15 155c-9 14 -24 22 -40 22
c-13 0 -27 -5 -36 -14c-11 -11 -17 -27 -17 -50v-227c0 -23 6 -39 17 -50c9 -9 23 -13 36 -13c16 0 31 7 40 21c14 24 15 78 15 156z" />
    <glyph glyph-name="c" unicode="c" horiz-adv-x="384" 
d="M356 155c-3 -50 -17 -95 -46 -124c-27 -27 -65 -39 -112 -39c-50 0 -94 13 -125 56c-33 45 -37 126 -37 216c0 89 4 170 37 216c31 43 75 55 125 55c45 0 80 -8 111 -37c33 -32 44 -80 47 -125h-105c-1 16 -3 35 -14 49c-8 12 -21 19 -39 19c-16 0 -32 -8 -41 -22
c-14 -24 -15 -77 -15 -155s1 -131 15 -156c9 -14 25 -21 41 -21c18 0 31 7 39 18c11 14 13 32 14 50h105z" />
    <glyph glyph-name="d" unicode="d" horiz-adv-x="408" 
d="M356 0h-102v40c-6 -10 -24 -27 -35 -33c-15 -9 -34 -15 -53 -15c-39 0 -69 11 -93 41c-35 43 -37 117 -37 231s2 187 37 230c24 29 52 41 93 41c19 0 38 -5 53 -14c11 -6 23 -17 31 -28v219h106v-712zM250 150v227c0 23 -6 39 -17 50c-9 9 -23 14 -36 14
c-16 0 -31 -8 -40 -22c-14 -24 -15 -77 -15 -155s1 -132 15 -156c9 -14 24 -21 40 -21c13 0 27 4 36 13c11 11 17 27 17 50z" />
    <glyph glyph-name="e" unicode="e" horiz-adv-x="394" 
d="M359 233h-217c0 -60 3 -106 16 -125c8 -12 22 -21 41 -21c18 0 30 8 40 21c8 10 13 31 13 47h105c-2 -44 -14 -88 -44 -121c-27 -30 -68 -42 -114 -42c-49 0 -82 11 -114 43c-45 45 -49 133 -49 229s4 184 49 229c32 32 70 42 113 42c44 0 82 -9 113 -42
c51 -54 47 -161 48 -260zM253 311c0 54 -3 94 -15 109c-9 12 -21 21 -40 21s-31 -9 -40 -21c-12 -15 -16 -55 -16 -109h111z" />
    <glyph glyph-name="f" unicode="f" horiz-adv-x="271" 
d="M252 446h-73v-446h-106v446h-54v81h54v31c0 62 20 101 53 127c35 27 77 33 126 33v-95c-49 0 -73 -23 -73 -71v-25h73v-81z" />
    <glyph glyph-name="g" unicode="g" horiz-adv-x="408" 
d="M356 -10c0 -68 -16 -108 -45 -137c-27 -27 -71 -43 -114 -43c-44 0 -85 13 -114 41c-32 32 -44 72 -44 116h105c0 -20 4 -37 15 -50c9 -10 22 -16 38 -16s29 7 38 17c11 13 15 32 15 65v90c-9 -12 -20 -23 -30 -29c-14 -9 -30 -12 -51 -12c-44 0 -67 11 -91 39
c-33 39 -42 99 -42 212s9 174 42 213c24 28 46 39 91 39c19 0 38 -5 54 -14c11 -6 23 -17 31 -28v34h102v-537zM250 187v190c0 22 -6 38 -16 49c-9 10 -22 15 -37 15c-19 0 -29 -9 -39 -22c-16 -21 -16 -72 -16 -137s0 -116 16 -137c10 -13 20 -21 39 -21c15 0 29 5 38 15
c10 11 15 26 15 48z" />
    <glyph glyph-name="h" unicode="h" horiz-adv-x="417" 
d="M368 0h-106v379c0 41 -23 61 -52 61s-52 -20 -52 -61v-379h-106v712h106v-219c8 11 20 22 31 28c15 9 34 14 53 14c43 0 72 -13 96 -41c21 -24 30 -53 30 -114v-380z" />
    <glyph glyph-name="i" unicode="i" horiz-adv-x="210" 
d="M158 0h-106v513h106v-513zM163 594h-117v117h117v-117z" />
    <glyph glyph-name="j" unicode="j" horiz-adv-x="210" 
d="M158 -25c0 -63 -21 -102 -54 -127c-35 -27 -75 -33 -124 -33v95c48 0 72 18 72 71v532h106v-538zM163 594h-117v117h117v-117z" />
    <glyph glyph-name="k" unicode="k" horiz-adv-x="416" 
d="M409 0h-117l-89 222l-45 -71v-151h-106v712h106v-410l133 225h111l-131 -209z" />
    <glyph glyph-name="l" unicode="l" horiz-adv-x="244" 
d="M227 0c-49 0 -90 5 -125 32c-33 25 -53 65 -53 128v552h106v-546c0 -47 23 -71 72 -71v-95z" />
    <glyph glyph-name="m" unicode="m" horiz-adv-x="628" 
d="M579 0h-106v379c0 41 -24 61 -53 61s-52 -20 -52 -61v-379h-106v379c0 41 -23 61 -52 61s-52 -20 -52 -61v-379h-106v527h102v-39c9 12 22 26 35 33c15 9 34 14 53 14c42 0 80 -21 103 -54c13 15 30 30 47 40c16 9 40 14 56 14c49 0 76 -13 100 -41
c21 -24 31 -53 31 -114v-380z" />
    <glyph glyph-name="n" unicode="n" horiz-adv-x="417" 
d="M368 0h-106v379c0 41 -23 61 -52 61s-52 -20 -52 -61v-379h-106v527h102v-39c9 12 22 26 35 33c15 9 34 14 53 14c43 0 72 -13 96 -41c21 -24 30 -53 30 -114v-380z" />
    <glyph glyph-name="o" unicode="o" horiz-adv-x="396" 
d="M360 264c0 -89 -4 -170 -37 -216c-31 -43 -74 -56 -125 -56s-94 13 -125 56c-33 46 -37 127 -37 216s4 170 37 216c31 43 74 55 125 55s94 -12 125 -55c33 -46 37 -127 37 -216zM254 264c0 78 -1 131 -15 155c-9 14 -25 22 -41 22s-32 -8 -41 -22
c-14 -24 -15 -77 -15 -155s1 -132 15 -156c9 -14 25 -21 41 -21s32 7 41 21c14 24 15 78 15 156z" />
    <glyph glyph-name="p" unicode="p" horiz-adv-x="408" 
d="M372 264c0 -114 -2 -188 -37 -231c-24 -29 -52 -41 -93 -41c-19 0 -38 5 -53 14c-11 6 -23 17 -31 28v-219h-106v712h102v-39c6 10 24 27 35 33c15 9 34 14 53 14c39 0 69 -11 93 -41c35 -43 37 -116 37 -230zM266 264c0 78 -1 131 -15 155c-9 14 -24 22 -40 22
c-13 0 -27 -5 -36 -14c-11 -11 -17 -27 -17 -50v-227c0 -23 6 -39 17 -50c9 -9 23 -13 36 -13c16 0 31 7 40 21c14 24 15 78 15 156z" />
    <glyph glyph-name="q" unicode="q" horiz-adv-x="408" 
d="M356 -185h-106v219c-8 -11 -20 -22 -31 -28c-15 -9 -34 -14 -53 -14c-41 0 -69 12 -93 41c-35 43 -37 117 -37 231s2 187 37 230c24 30 54 41 93 41c19 0 38 -5 53 -14c11 -6 29 -23 35 -33v39h102v-712zM250 150v227c0 23 -6 39 -17 50c-9 9 -23 14 -36 14
c-16 0 -31 -8 -40 -22c-14 -24 -15 -77 -15 -155s1 -132 15 -156c9 -14 24 -21 40 -21c13 0 27 4 36 13c11 11 17 27 17 50z" />
    <glyph glyph-name="r" unicode="r" horiz-adv-x="299" 
d="M282 432h-36c-50 0 -88 -34 -88 -91v-341h-106v527h102v-56c11 16 28 31 46 42c23 14 51 22 82 22v-103z" />
    <glyph glyph-name="s" unicode="s" horiz-adv-x="381" 
d="M352 152c0 -52 -20 -90 -47 -117c-32 -32 -70 -43 -115 -43s-89 15 -116 43c-31 32 -47 69 -47 119h105c0 -21 6 -38 18 -50c10 -11 26 -16 40 -16c17 0 29 4 41 15c10 9 15 25 15 42c0 15 -3 27 -11 39s-22 22 -41 30l-70 31c-36 16 -62 37 -77 61c-12 19 -17 43 -17 72
c0 51 18 84 46 113c29 29 70 44 114 44s84 -14 111 -40c28 -27 45 -64 45 -117h-104c0 23 -5 37 -15 48s-23 16 -37 16c-16 0 -30 -6 -39 -15c-10 -10 -15 -24 -15 -40c0 -13 2 -22 8 -31c7 -11 21 -22 39 -30l70 -30c36 -16 60 -33 77 -58c14 -20 22 -50 22 -86z" />
    <glyph glyph-name="t" unicode="t" horiz-adv-x="274" 
d="M254 0c-50 0 -92 4 -128 32c-33 26 -53 66 -53 128v286h-54v81h54v135h106v-135h73v-81h-73v-280c0 -49 25 -71 75 -71v-95z" />
    <glyph glyph-name="u" unicode="u" horiz-adv-x="417" 
d="M365 0h-101v40c-9 -12 -23 -26 -36 -33c-15 -9 -34 -15 -53 -15c-43 0 -72 13 -96 41c-21 24 -30 53 -30 114v380h106v-379c0 -41 23 -61 52 -61s52 20 52 61v379h106v-527z" />
    <glyph glyph-name="v" unicode="v" horiz-adv-x="381" 
d="M377 527l-130 -527h-112l-131 527h117l70 -359l69 359h117z" />
    <glyph glyph-name="w" unicode="w" horiz-adv-x="577" 
d="M573 527l-118 -527h-105l-63 342l-62 -342h-105l-116 527h118l55 -359l65 359h91l66 -359l55 359h119z" />
    <glyph glyph-name="x" unicode="x" horiz-adv-x="391" 
d="M382 0h-118l-69 164l-69 -164h-117l124 268l-118 259h117l63 -160l63 160h118l-120 -259z" />
    <glyph glyph-name="y" unicode="y" horiz-adv-x="382" 
d="M377 527l-148 -594c-26 -106 -101 -118 -197 -118v94c46 1 81 5 94 55l9 37l-131 526h117l70 -359l69 359h117z" />
    <glyph glyph-name="z" unicode="z" horiz-adv-x="325" 
d="M299 0h-273v80l154 353h-142v94h261v-79l-154 -353h154v-95z" />
    <glyph glyph-name="braceleft" unicode="{" horiz-adv-x="335" 
d="M307 -74h-61c-36 0 -70 12 -94 36c-23 22 -38 56 -38 104v190c0 31 -19 53 -46 53h-39v94h39c27 0 46 22 46 53v190c0 48 15 82 38 104c24 24 58 36 94 36h61v-95h-39c-27 0 -48 -21 -48 -52v-180c0 -40 -11 -65 -27 -81c-14 -14 -27 -19 -37 -22c10 -3 24 -11 37 -22
c16 -16 27 -41 27 -81v-180c0 -31 21 -52 48 -52h39v-95z" />
    <glyph glyph-name="bar" unicode="|" horiz-adv-x="330" 
d="M218 -74h-106v860h106v-860z" />
    <glyph glyph-name="braceright" unicode="}" horiz-adv-x="335" 
d="M307 309h-39c-27 0 -47 -22 -47 -53v-190c0 -48 -14 -82 -37 -104c-24 -24 -59 -36 -95 -36h-60v95h39c27 0 47 21 47 52v180c0 40 11 65 27 81c11 11 27 19 37 22c-10 3 -27 8 -37 22c-16 16 -27 41 -27 81v180c0 31 -20 52 -47 52h-39v95h60c36 0 71 -12 95 -36
c23 -22 37 -56 37 -104v-190c0 -31 20 -53 47 -53h39v-94z" />
    <glyph glyph-name="asciitilde" unicode="~" horiz-adv-x="457" 
d="M434 287c-47 -47 -82 -66 -126 -66c-36 0 -60 10 -88 25c-21 11 -40 20 -66 20s-43 -10 -66 -33l-65 64c47 47 82 66 126 66c36 0 61 -10 89 -25c21 -11 39 -20 65 -20s43 10 66 33z" />
    <glyph glyph-name="nbspace" unicode="&#xa0;" horiz-adv-x="179" 
 />
    <glyph glyph-name="exclamdown" unicode="&#xa1;" horiz-adv-x="257" 
d="M170 -185h-106v513h106v-513zM179 404h-123v123h123v-123z" />
    <glyph glyph-name="cent" unicode="&#xa2;" horiz-adv-x="392" 
d="M360 259c-2 -47 -16 -90 -45 -118c-18 -18 -42 -28 -71 -34v-107h-81v107c-34 6 -63 21 -85 50c-33 44 -37 121 -37 206s4 162 37 206c22 29 51 44 85 50v93h81v-93c26 -4 49 -14 70 -33c33 -30 44 -76 46 -119h-105c0 16 -2 33 -13 47c-9 11 -21 17 -39 17
c-16 0 -32 -6 -41 -20c-14 -23 -15 -74 -15 -148s1 -125 15 -148c9 -14 25 -21 41 -21c17 0 30 7 39 18c11 13 13 30 13 47h105z" />
    <glyph glyph-name="sterling" unicode="&#xa3;" horiz-adv-x="460" 
d="M427 0h-332v324h-63v81h63v122c0 117 82 193 191 193c56 0 107 -21 141 -57l-77 -75c-11 14 -28 31 -64 31c-43 0 -79 -33 -79 -91v-123h80v-81h-80v-223h220v-101z" />
    <glyph glyph-name="currency" unicode="&#xa4;" horiz-adv-x="498" 
d="M459 189c-2 -64 -23 -119 -59 -152c-32 -29 -70 -45 -123 -45c-68 0 -107 26 -137 60c-34 38 -48 94 -50 183h-58v81h56v80h-56v81h58c2 89 17 145 50 183c30 34 69 60 137 60c54 0 93 -16 125 -46c35 -33 55 -87 57 -150h-112c-1 47 -12 95 -70 95
c-27 0 -45 -11 -55 -27c-14 -22 -18 -48 -19 -115h106v-81h-109v-80h109v-81h-106c1 -67 5 -93 20 -115c10 -15 27 -27 54 -27c58 0 69 49 70 96h112z" />
    <glyph glyph-name="yen" unicode="&#xa5;" horiz-adv-x="389" 
d="M380 712l-93 -305h59v-80h-84l-15 -48v-40h99v-81h-99v-158h-106v158h-99v81h99v40l-14 48h-85v80h60l-93 305h117l68 -282l69 282h117z" />
    <glyph glyph-name="brokenbar" unicode="&#xa6;" horiz-adv-x="330" 
d="M218 438h-106v346h106v-346zM218 -72h-106v346h106v-346z" />
    <glyph glyph-name="section" unicode="&#xa7;" horiz-adv-x="429" 
d="M384 270c0 -73 -5 -114 -49 -151c-7 -6 -15 -12 -26 -15c21 -13 37 -27 49 -48c13 -22 19 -49 19 -76c0 -52 -17 -88 -47 -118c-29 -30 -73 -42 -118 -42s-88 16 -116 44c-30 30 -47 66 -47 113h108c0 -18 5 -33 16 -45c10 -11 25 -16 39 -16c19 0 31 4 41 14
c9 9 15 23 15 41c0 14 -4 27 -11 37c-9 13 -24 24 -41 31l-73 31c-18 8 -36 19 -50 32c-46 45 -48 94 -48 168c0 72 6 110 49 146c8 6 17 12 28 16c-21 13 -40 30 -51 49c-12 19 -18 43 -18 75c0 48 18 84 46 112c29 29 72 44 116 44c42 0 78 -12 106 -35
c33 -27 52 -68 52 -118h-106c0 17 -4 33 -15 44c-10 11 -23 16 -37 16c-16 0 -29 -6 -38 -15c-10 -10 -15 -23 -15 -39c0 -15 3 -26 8 -35c7 -11 22 -23 39 -30l72 -31c20 -8 45 -22 59 -36c37 -38 44 -71 44 -163zM278 270c0 43 0 80 -23 101c-11 10 -24 15 -40 15
s-30 -6 -41 -15c-22 -19 -23 -56 -23 -101c0 -41 0 -82 23 -102c11 -9 25 -14 41 -14s29 6 40 15c23 20 23 58 23 101z" />
    <glyph glyph-name="dieresis" unicode="&#xa8;" 
d="M337 597h-100v100h100v-100zM162 597h-100v100h100v-100z" />
    <glyph glyph-name="copyright" unicode="&#xa9;" horiz-adv-x="844" 
d="M784 356c0 -200 -162 -362 -362 -362s-362 162 -362 362s162 362 362 362s362 -162 362 -362zM713 356c0 170 -127 297 -291 297s-291 -127 -291 -297s127 -297 291 -297s291 127 291 297zM527 269c-1 -39 -13 -69 -32 -88c-18 -18 -41 -28 -71 -28c-38 0 -60 16 -77 36
c-29 35 -29 102 -29 166s0 131 29 166c17 20 39 36 77 36c30 0 53 -9 71 -27c19 -19 30 -49 31 -88h-64c0 16 -2 30 -9 40c-6 9 -15 15 -29 15s-22 -7 -28 -16c-12 -19 -14 -65 -14 -126s2 -107 14 -126c6 -9 15 -16 28 -16s22 5 28 13c8 10 10 25 10 43h65z" />
    <glyph glyph-name="ordfeminine" unicode="&#xaa;" horiz-adv-x="331" 
d="M289 294h-82v34c-10 -13 -21 -22 -28 -26c-12 -7 -29 -12 -47 -12c-35 0 -59 9 -81 34c-18 20 -26 50 -26 92c0 39 14 71 41 94c21 18 49 29 98 29h37v54c0 28 -14 47 -40 47c-13 0 -23 -6 -30 -13c-11 -12 -11 -28 -11 -38h-88c0 35 9 66 36 93c21 21 56 35 92 35
c35 0 69 -10 92 -33c22 -22 37 -54 37 -99v-291zM201 420v57h-28c-16 0 -32 -3 -43 -13s-17 -28 -17 -44c0 -33 14 -56 44 -56c24 0 44 21 44 56z" />
    <glyph glyph-name="guillemotleft" unicode="&#xab;" horiz-adv-x="414" 
d="M185 27l-161 249l161 248v-158l-61 -90l61 -92v-157zM367 27l-160 249l160 248v-158l-62 -90l62 -92v-157z" />
    <glyph glyph-name="logicalnot" unicode="&#xac;" horiz-adv-x="457" 
d="M407 142h-101v110h-255v101h356v-211z" />
    <glyph glyph-name="registered" unicode="&#xae;" horiz-adv-x="844" 
d="M784 356c0 -200 -162 -362 -362 -362s-362 162 -362 362s162 362 362 362s362 -162 362 -362zM713 356c0 170 -127 297 -291 297s-291 -127 -291 -297s127 -297 291 -297s291 127 291 297zM544 158h-67l-49 160h-35v-160h-65v394h104c33 0 58 -8 74 -24
c20 -21 26 -51 26 -93c0 -39 -4 -66 -25 -88c-5 -6 -12 -11 -19 -15zM468 435c0 20 -2 36 -11 47c-6 6 -14 10 -25 10h-39v-114h39c11 0 19 4 25 10c10 11 11 26 11 47z" />
    <glyph glyph-name="macron" unicode="&#xaf;" 
d="M322 610h-245v71h245v-71z" />
    <glyph glyph-name="degree" unicode="&#xb0;" horiz-adv-x="410" 
d="M367 564c0 -89 -73 -162 -162 -162s-162 73 -162 162s73 162 162 162s162 -73 162 -162zM274 564c0 39 -31 70 -69 70s-69 -31 -69 -70s31 -69 69 -69s69 30 69 69z" />
    <glyph glyph-name="plusminus" unicode="&#xb1;" horiz-adv-x="457" 
d="M413 316h-134v-134h-101v134h-134v101h134v134h101v-134h134v-101zM413 13h-369v101h369v-101z" />
    <glyph glyph-name="twosuperior" unicode="&#xb2;" horiz-adv-x="317" 
d="M276 285h-231v56l133 203c13 20 21 42 21 72c0 26 -17 41 -41 41c-26 0 -41 -15 -41 -43v-30h-76v28c0 38 10 60 32 78c21 18 52 27 85 27c34 0 60 -7 82 -24c21 -17 36 -44 36 -79c0 -31 -12 -66 -29 -92l-119 -178h148v-59z" />
    <glyph glyph-name="threesuperior" unicode="&#xb3;" horiz-adv-x="317" 
d="M275 405c0 -42 -2 -71 -34 -98c-21 -17 -52 -27 -85 -27s-65 10 -86 28c-20 17 -32 38 -32 80v18h77v-20c0 -18 3 -28 11 -35c7 -7 18 -11 30 -11c13 0 24 4 30 11c10 11 12 38 12 59c0 22 -1 45 -11 57c-7 9 -17 13 -32 13h-25v57h25c12 0 20 3 27 9c13 13 13 37 13 53
s0 37 -11 48c-6 6 -15 10 -28 10c-12 0 -21 -3 -28 -10s-10 -18 -10 -31v-24h-77v20c0 38 10 60 31 78s50 27 84 27c37 0 64 -10 82 -26c23 -20 33 -51 33 -88c0 -26 -2 -48 -14 -67c-8 -12 -18 -20 -31 -27c14 -7 26 -17 34 -30c13 -21 15 -45 15 -74z" />
    <glyph glyph-name="acute" unicode="&#xb4;" 
d="M315 726l-87 -139h-74l72 139h89z" />
    <glyph glyph-name="mu" unicode="&#xb5;" horiz-adv-x="421" 
d="M367 0h-102v40c-9 -12 -22 -26 -35 -33c-15 -9 -34 -15 -56 -15c-10 0 -19 4 -22 8v-185h-102v712h106v-379c0 -41 24 -61 53 -61s52 20 52 61v379h106v-527z" />
    <glyph glyph-name="paragraph" unicode="&#xb6;" horiz-adv-x="602" 
d="M549 -185h-106v796h-101v-796h-106v471h-52c-92 0 -148 60 -148 213s56 213 148 213h365v-897z" />
    <glyph glyph-name="periodcentered" unicode="&#xb7;" horiz-adv-x="272" 
d="M216 221h-160v160h160v-160z" />
    <glyph glyph-name="cedilla" unicode="&#xb8;" 
d="M243 -40l-53 -154h-76l61 154h68z" />
    <glyph glyph-name="onesuperior" unicode="&#xb9;" horiz-adv-x="317" 
d="M212 285h-77v349l-75 -47v76l76 49h76v-427z" />
    <glyph glyph-name="ordmasculine" unicode="&#xba;" horiz-adv-x="329" 
d="M297 502c0 -70 -4 -134 -31 -170c-25 -34 -59 -44 -101 -44s-77 10 -102 44c-27 36 -31 100 -31 170s4 134 31 170c25 34 60 44 102 44s76 -10 101 -44c27 -36 31 -100 31 -170zM209 502c0 42 -1 100 -13 120c-7 11 -18 17 -31 17s-25 -6 -32 -17
c-12 -21 -13 -77 -13 -120s1 -99 13 -120c7 -11 19 -17 32 -17s24 6 31 17c12 20 13 78 13 120z" />
    <glyph glyph-name="guillemotright" unicode="&#xbb;" horiz-adv-x="414" 
d="M389 276l-160 -249v157l61 92l-61 90v158zM207 276l-160 -249v157l62 92l-62 90v158z" />
    <glyph glyph-name="onequarter" unicode="&#xbc;" horiz-adv-x="785" 
d="M550 712l-246 -712h-82l246 712h82zM750 63h-34v-63h-76v63h-146v60l109 304h75l-106 -304h68v70h76v-70h34v-60zM211 285h-76v349l-75 -47v76l75 49h76v-427z" />
    <glyph glyph-name="onehalf" unicode="&#xbd;" horiz-adv-x="785" 
d="M550 712l-246 -712h-82l246 712h82zM744 0h-231v56l134 203c13 20 20 42 20 72c0 26 -17 41 -41 41c-26 0 -40 -15 -40 -43v-30h-77v28c0 38 10 60 32 78c21 18 52 27 85 27c34 0 61 -7 83 -24c21 -17 35 -44 35 -79c0 -31 -12 -66 -29 -92l-118 -178h147v-59zM211 285
h-76v349l-75 -47v76l75 49h76v-427z" />
    <glyph glyph-name="threequarters" unicode="&#xbe;" horiz-adv-x="785" 
d="M550 712l-246 -712h-82l246 712h82zM275 405c0 -42 -2 -71 -34 -98c-21 -17 -52 -27 -85 -27s-65 10 -86 28c-20 17 -32 38 -32 80v18h77v-20c0 -18 3 -28 11 -35c7 -7 18 -11 30 -11c13 0 24 4 30 11c10 11 12 38 12 59c0 22 -1 45 -11 57c-7 9 -17 13 -32 13h-25v57h25
c12 0 20 3 27 9c13 13 13 37 13 53s0 37 -11 48c-6 6 -15 10 -28 10c-12 0 -21 -3 -28 -10s-10 -18 -10 -31v-24h-77v20c0 38 10 60 31 78s50 27 84 27c37 0 64 -10 82 -26c23 -20 33 -51 33 -88c0 -26 -2 -48 -14 -67c-8 -12 -18 -20 -31 -27c14 -7 26 -17 34 -30
c13 -21 15 -45 15 -74zM750 63h-34v-63h-77v63h-146v60l110 304h74l-105 -304h67v70h77v-70h34v-60z" />
    <glyph glyph-name="questiondown" unicode="&#xbf;" horiz-adv-x="426" 
d="M370 1c0 -60 -12 -112 -47 -145c-28 -26 -66 -47 -120 -47c-53 0 -94 17 -122 46c-35 35 -48 79 -48 149c0 55 10 91 34 123l59 78c15 20 23 41 23 65v58h106v-70c0 -32 -13 -62 -31 -86l-59 -78c-22 -29 -26 -54 -26 -93c0 -35 4 -60 20 -78c11 -12 24 -19 43 -19
c18 0 32 7 43 19c18 20 19 50 19 78h106zM264 404h-123v123h123v-123z" />
    <glyph glyph-name="Agrave" unicode="&#xc0;" horiz-adv-x="468" 
d="M462 0h-117l-29 141h-165l-28 -141h-118l175 712h109zM295 242l-61 298l-61 -298h122zM280 760h-74l-87 139h89z" />
    <glyph glyph-name="Aacute" unicode="&#xc1;" horiz-adv-x="468" 
d="M462 0h-117l-29 141h-165l-28 -141h-118l175 712h109zM295 242l-61 298l-61 -298h122zM349 899l-87 -139h-74l72 139h89z" />
    <glyph glyph-name="Acircumflex" unicode="&#xc2;" horiz-adv-x="468" 
d="M462 0h-117l-29 141h-165l-28 -141h-118l175 712h109zM375 760h-81l-60 82l-59 -82h-81l99 139h83zM295 242l-61 298l-61 -298h122z" />
    <glyph glyph-name="Atilde" unicode="&#xc3;" horiz-adv-x="468" 
d="M462 0h-117l-29 141h-165l-28 -141h-118l175 712h109zM381 814c-35 -35 -58 -46 -89 -46c-23 0 -40 4 -62 17c-15 9 -28 15 -44 15c-14 0 -26 -3 -46 -23l-45 46c35 35 57 47 88 47c23 0 40 -4 62 -17c15 -9 28 -15 44 -15c13 0 25 3 45 23zM295 242l-61 298l-61 -298
h122z" />
    <glyph glyph-name="Adieresis" unicode="&#xc4;" horiz-adv-x="468" 
d="M462 0h-117l-29 141h-165l-28 -141h-118l175 712h109zM295 242l-61 298l-61 -298h122zM372 770h-100v100h100v-100zM197 770h-100v100h100v-100z" />
    <glyph glyph-name="Aring" unicode="&#xc5;" horiz-adv-x="468" 
d="M462 0h-117l-29 141h-165l-28 -141h-118l175 712h109zM339 861c0 -58 -47 -105 -105 -105s-104 47 -104 105s46 104 104 104s105 -46 105 -104zM295 242l-61 298l-61 -298h122zM280 861c0 25 -21 46 -46 46s-45 -21 -45 -46s20 -46 45 -46s46 21 46 46z" />
    <glyph glyph-name="AE" unicode="&#xc6;" horiz-adv-x="675" 
d="M638 0h-299v148h-158l-52 -148h-123l261 712h371v-101h-187v-202h161v-101h-161v-207h187v-101zM339 249v362l-125 -362h125z" />
    <glyph glyph-name="Ccedilla" unicode="&#xc7;" horiz-adv-x="447" 
d="M413 189c-2 -64 -23 -119 -59 -152c-32 -29 -70 -45 -123 -45c-68 0 -108 26 -138 60c-53 60 -52 163 -52 303s-1 245 52 305c30 34 70 60 138 60c54 0 92 -16 124 -46c35 -33 55 -87 57 -150h-112c-1 26 -5 51 -17 69c-10 16 -25 26 -52 26s-43 -11 -53 -27
c-21 -34 -25 -106 -25 -236s4 -202 25 -236c10 -16 26 -27 53 -27s43 10 53 26c12 18 16 44 17 70h112zM267 -40l-53 -154h-76l61 154h68z" />
    <glyph glyph-name="Egrave" unicode="&#xc8;" horiz-adv-x="396" 
d="M359 0h-299v712h299v-101h-187v-202h161v-101h-161v-207h187v-101zM258 760h-74l-87 139h89z" />
    <glyph glyph-name="Eacute" unicode="&#xc9;" horiz-adv-x="396" 
d="M359 0h-299v712h299v-101h-187v-202h161v-101h-161v-207h187v-101zM328 899l-87 -139h-74l72 139h89z" />
    <glyph glyph-name="Ecircumflex" unicode="&#xca;" horiz-adv-x="396" 
d="M359 0h-299v712h299v-101h-187v-202h161v-101h-161v-207h187v-101zM354 760h-81l-60 82l-59 -82h-81l99 139h83z" />
    <glyph glyph-name="Edieresis" unicode="&#xcb;" horiz-adv-x="396" 
d="M359 0h-299v712h299v-101h-187v-202h161v-101h-161v-207h187v-101zM176 770h-100v100h100v-100zM351 770h-100v100h100v-100z" />
    <glyph glyph-name="Igrave" unicode="&#xcc;" horiz-adv-x="232" 
d="M172 0h-112v712h112v-712zM172 760h-74l-87 139h89z" />
    <glyph glyph-name="Iacute" unicode="&#xcd;" horiz-adv-x="232" 
d="M172 0h-112v712h112v-712zM233 899l-87 -139h-74l72 139h89z" />
    <glyph glyph-name="Icircumflex" unicode="&#xce;" horiz-adv-x="232" 
d="M172 0h-112v712h112v-712zM257 760h-81l-60 82l-59 -82h-81l99 139h83z" />
    <glyph glyph-name="Idieresis" unicode="&#xcf;" horiz-adv-x="232" 
d="M172 0h-112v712h112v-712zM78 770h-100v100h100v-100zM253 770h-100v100h100v-100z" />
    <glyph glyph-name="Eth" unicode="&#xd0;" horiz-adv-x="489" 
d="M448 356c0 -137 1 -238 -52 -297c-29 -33 -70 -59 -138 -59h-181v314h-51v88h51v310h181c68 0 109 -26 138 -59c53 -59 52 -160 52 -297zM336 357c0 124 -3 192 -24 225c-11 17 -30 29 -57 29h-66v-209h70v-88h-70v-213h66c27 0 46 12 57 29c21 33 24 103 24 227z" />
    <glyph glyph-name="Ntilde" unicode="&#xd1;" horiz-adv-x="499" 
d="M439 0h-99l-168 423v-423h-112v712h100l167 -423v423h112v-712zM400 814c-35 -35 -58 -46 -89 -46c-23 0 -40 4 -62 17c-15 9 -28 15 -44 15c-14 0 -26 -3 -46 -23l-45 46c35 35 57 47 88 47c23 0 40 -4 62 -17c15 -9 28 -15 44 -15c13 0 25 3 45 23z" />
    <glyph glyph-name="Ograve" unicode="&#xd2;" horiz-adv-x="462" 
d="M421 356c0 -140 1 -244 -52 -304c-30 -34 -70 -60 -138 -60s-108 26 -138 60c-53 60 -52 164 -52 304s-1 244 52 304c30 34 70 60 138 60s108 -26 138 -60c53 -60 52 -164 52 -304zM309 356c0 130 -3 202 -24 236c-10 16 -27 27 -54 27s-43 -11 -53 -27
c-21 -34 -25 -106 -25 -236s4 -202 25 -236c10 -16 26 -27 53 -27s44 11 54 27c21 34 24 106 24 236zM275 760h-74l-87 139h89z" />
    <glyph glyph-name="Oacute" unicode="&#xd3;" horiz-adv-x="462" 
d="M421 356c0 -140 1 -244 -52 -304c-30 -34 -70 -60 -138 -60s-108 26 -138 60c-53 60 -52 164 -52 304s-1 244 52 304c30 34 70 60 138 60s108 -26 138 -60c53 -60 52 -164 52 -304zM309 356c0 130 -3 202 -24 236c-10 16 -27 27 -54 27s-43 -11 -53 -27
c-21 -34 -25 -106 -25 -236s4 -202 25 -236c10 -16 26 -27 53 -27s44 11 54 27c21 34 24 106 24 236zM346 899l-87 -139h-74l72 139h89z" />
    <glyph glyph-name="Ocircumflex" unicode="&#xd4;" horiz-adv-x="462" 
d="M421 356c0 -140 1 -244 -52 -304c-30 -34 -70 -60 -138 -60s-108 26 -138 60c-53 60 -52 164 -52 304s-1 244 52 304c30 34 70 60 138 60s108 -26 138 -60c53 -60 52 -164 52 -304zM309 356c0 130 -3 202 -24 236c-10 16 -27 27 -54 27s-43 -11 -53 -27
c-21 -34 -25 -106 -25 -236s4 -202 25 -236c10 -16 26 -27 53 -27s44 11 54 27c21 34 24 106 24 236zM370 760h-81l-60 82l-59 -82h-81l99 139h83z" />
    <glyph glyph-name="Otilde" unicode="&#xd5;" horiz-adv-x="462" 
d="M421 356c0 -140 1 -244 -52 -304c-30 -34 -70 -60 -138 -60s-108 26 -138 60c-53 60 -52 164 -52 304s-1 244 52 304c30 34 70 60 138 60s108 -26 138 -60c53 -60 52 -164 52 -304zM309 356c0 130 -3 202 -24 236c-10 16 -27 27 -54 27s-43 -11 -53 -27
c-21 -34 -25 -106 -25 -236s4 -202 25 -236c10 -16 26 -27 53 -27s44 11 54 27c21 34 24 106 24 236zM376 814c-35 -35 -58 -46 -89 -46c-23 0 -40 4 -62 17c-15 9 -28 15 -44 15c-14 0 -26 -3 -46 -23l-45 46c35 35 57 47 88 47c23 0 40 -4 62 -17c15 -9 28 -15 44 -15
c13 0 25 3 45 23z" />
    <glyph glyph-name="Odieresis" unicode="&#xd6;" horiz-adv-x="462" 
d="M421 356c0 -140 1 -244 -52 -304c-30 -34 -70 -60 -138 -60s-108 26 -138 60c-53 60 -52 164 -52 304s-1 244 52 304c30 34 70 60 138 60s108 -26 138 -60c53 -60 52 -164 52 -304zM309 356c0 130 -3 202 -24 236c-10 16 -27 27 -54 27s-43 -11 -53 -27
c-21 -34 -25 -106 -25 -236s4 -202 25 -236c10 -16 26 -27 53 -27s44 11 54 27c21 34 24 106 24 236zM367 770h-100v100h100v-100zM192 770h-100v100h100v-100z" />
    <glyph glyph-name="multiply" unicode="&#xd7;" horiz-adv-x="457" 
d="M413 170l-68 -68l-116 116l-116 -116l-68 68l116 116l-116 116l68 68l116 -115l116 115l68 -68l-116 -116z" />
    <glyph glyph-name="Oslash" unicode="&#xd8;" horiz-adv-x="457" 
d="M422 356c0 -140 1 -244 -52 -304c-30 -34 -71 -60 -139 -60c-35 0 -64 7 -87 19l-19 -55h-74l37 102c-48 60 -47 167 -47 298c0 140 -1 244 52 304c30 34 70 60 138 60c35 0 64 -7 87 -19l20 55h74l-37 -103c48 -60 47 -167 47 -297zM281 598c-11 13 -27 21 -50 21
c-27 0 -43 -11 -53 -27c-21 -34 -25 -106 -25 -236c0 -63 1 -100 5 -127zM309 356c0 62 0 99 -4 126l-123 -368c10 -13 26 -21 49 -21c27 0 44 11 54 27c21 34 24 106 24 236z" />
    <glyph glyph-name="Ugrave" unicode="&#xd9;" horiz-adv-x="471" 
d="M417 175c0 -54 -18 -99 -49 -131c-34 -35 -79 -52 -132 -52s-99 17 -133 52c-31 32 -49 77 -49 131v537h112v-543c0 -51 32 -76 70 -76s69 25 69 76v543h112v-537zM282 760h-74l-87 139h89z" />
    <glyph glyph-name="Uacute" unicode="&#xda;" horiz-adv-x="471" 
d="M417 175c0 -54 -18 -99 -49 -131c-34 -35 -79 -52 -132 -52s-99 17 -133 52c-31 32 -49 77 -49 131v537h112v-543c0 -51 32 -76 70 -76s69 25 69 76v543h112v-537zM353 899l-87 -139h-74l72 139h89z" />
    <glyph glyph-name="Ucircumflex" unicode="&#xdb;" horiz-adv-x="471" 
d="M417 175c0 -54 -18 -99 -49 -131c-34 -35 -79 -52 -132 -52s-99 17 -133 52c-31 32 -49 77 -49 131v537h112v-543c0 -51 32 -76 70 -76s69 25 69 76v543h112v-537zM377 760h-81l-60 82l-59 -82h-81l99 139h83z" />
    <glyph glyph-name="Udieresis" unicode="&#xdc;" horiz-adv-x="471" 
d="M417 175c0 -54 -18 -99 -49 -131c-34 -35 -79 -52 -132 -52s-99 17 -133 52c-31 32 -49 77 -49 131v537h112v-543c0 -51 32 -76 70 -76s69 25 69 76v543h112v-537zM199 770h-100v100h100v-100zM374 770h-100v100h100v-100z" />
    <glyph glyph-name="Yacute" unicode="&#xdd;" horiz-adv-x="389" 
d="M388 712l-138 -433v-279h-112v279l-138 433h124l70 -282l71 282h123zM310 899l-87 -139h-74l72 139h89z" />
    <glyph glyph-name="Thorn" unicode="&#xde;" horiz-adv-x="459" 
d="M422 361c0 -144 -48 -218 -183 -218h-67v-143h-112v712h112v-135h67c129 0 183 -67 183 -216zM310 360c0 63 -9 116 -69 116h-69v-232h69c60 0 69 53 69 116z" />
    <glyph glyph-name="germandbls" unicode="&#xdf;" horiz-adv-x="416" 
d="M381 215c0 -71 0 -130 -47 -175c-33 -32 -78 -40 -122 -40v95c15 0 35 3 46 17c18 22 17 63 17 112c0 45 0 83 -15 105c-8 12 -21 19 -40 19h-8v89h8c16 0 27 7 34 17c15 20 14 51 14 75c0 29 -1 59 -15 78c-9 12 -22 18 -41 18c-31 0 -54 -21 -54 -64v-561h-106v558
c0 58 16 91 45 119c28 27 70 43 114 43s86 -11 116 -41c40 -40 47 -86 47 -141c0 -35 -1 -69 -17 -101c-8 -16 -21 -31 -38 -43c16 -11 30 -25 39 -41c20 -34 23 -72 23 -138z" />
    <glyph glyph-name="agrave" unicode="&#xe0;" 
d="M348 0h-100v45c-9 -13 -20 -27 -32 -35c-16 -11 -33 -18 -60 -18c-44 0 -73 13 -99 44c-22 25 -32 65 -32 118c0 48 17 90 49 118c26 23 60 36 121 36h47v73c0 39 -18 61 -51 61c-16 0 -27 -6 -35 -15c-11 -12 -16 -27 -16 -49h-106c0 42 12 81 45 114
c25 25 67 43 111 43s84 -11 112 -39s46 -67 46 -124v-372zM242 155v78h-35c-24 0 -40 -2 -55 -16c-13 -12 -21 -38 -21 -59c0 -47 19 -73 55 -73c32 0 56 27 56 70zM243 587h-74l-87 139h89z" />
    <glyph glyph-name="aacute" unicode="&#xe1;" 
d="M350 0h-100v45c-9 -13 -20 -27 -32 -35c-16 -11 -33 -18 -60 -18c-44 0 -72 13 -99 44c-21 25 -32 65 -32 118c0 48 17 90 49 118c26 23 60 36 121 36h47v73c0 39 -18 61 -51 61c-16 0 -27 -6 -35 -15c-11 -12 -16 -27 -16 -49h-106c0 42 12 81 45 114
c25 25 68 43 111 43c44 0 85 -11 112 -39c28 -28 46 -67 46 -124v-372zM244 155v78h-35c-23 0 -40 -2 -55 -16c-13 -12 -21 -38 -21 -59c0 -47 19 -73 55 -73c32 0 56 27 56 70zM313 726l-87 -139h-74l72 139h89z" />
    <glyph glyph-name="acircumflex" unicode="&#xe2;" 
d="M350 0h-100v45c-9 -13 -20 -27 -32 -35c-16 -11 -33 -18 -60 -18c-44 0 -72 13 -99 44c-21 25 -32 65 -32 118c0 48 17 90 49 118c26 23 60 36 121 36h47v73c0 39 -18 61 -51 61c-16 0 -27 -6 -35 -15c-11 -12 -16 -27 -16 -49h-106c0 42 12 81 45 114
c25 25 68 43 111 43c44 0 85 -11 112 -39c28 -28 46 -67 46 -124v-372zM335 587h-81l-60 82l-59 -82h-81l99 139h83zM244 155v78h-35c-23 0 -40 -2 -55 -16c-13 -12 -21 -38 -21 -59c0 -47 19 -73 55 -73c32 0 56 27 56 70z" />
    <glyph glyph-name="atilde" unicode="&#xe3;" 
d="M350 0h-100v45c-9 -13 -20 -27 -32 -35c-16 -11 -33 -18 -60 -18c-44 0 -72 13 -99 44c-21 25 -32 65 -32 118c0 48 17 90 49 118c26 23 60 36 121 36h47v73c0 39 -18 61 -51 61c-16 0 -27 -6 -35 -15c-11 -12 -16 -27 -16 -49h-106c0 42 12 81 45 114
c25 25 68 43 111 43c44 0 85 -11 112 -39c28 -28 46 -67 46 -124v-372zM341 641c-35 -35 -58 -46 -89 -46c-23 0 -40 4 -62 17c-15 9 -28 15 -44 15c-14 0 -26 -3 -46 -23l-45 46c35 35 57 47 88 47c23 0 40 -4 62 -17c15 -9 28 -15 44 -15c13 0 25 3 45 23zM244 155v78h-35
c-23 0 -40 -2 -55 -16c-13 -12 -21 -38 -21 -59c0 -47 19 -73 55 -73c32 0 56 27 56 70z" />
    <glyph glyph-name="adieresis" unicode="&#xe4;" 
d="M350 0h-100v45c-9 -13 -20 -27 -32 -35c-16 -11 -33 -18 -60 -18c-44 0 -72 13 -99 44c-21 25 -32 65 -32 118c0 48 17 90 49 118c26 23 60 36 121 36h47v73c0 39 -18 61 -51 61c-16 0 -27 -6 -35 -15c-11 -12 -16 -27 -16 -49h-106c0 42 12 81 45 114
c25 25 68 43 111 43c44 0 85 -11 112 -39c28 -28 46 -67 46 -124v-372zM244 155v78h-35c-23 0 -40 -2 -55 -16c-13 -12 -21 -38 -21 -59c0 -47 19 -73 55 -73c32 0 56 27 56 70zM332 597h-100v100h100v-100zM157 597h-100v100h100v-100z" />
    <glyph glyph-name="aring" unicode="&#xe5;" 
d="M350 0h-100v45c-9 -13 -20 -27 -32 -35c-16 -11 -33 -18 -60 -18c-44 0 -72 13 -99 44c-21 25 -32 65 -32 118c0 48 17 90 49 118c26 23 60 36 121 36h47v73c0 39 -18 61 -51 61c-16 0 -27 -6 -35 -15c-11 -12 -16 -27 -16 -49h-106c0 42 12 81 45 114
c25 25 68 43 111 43c44 0 85 -11 112 -39c28 -28 46 -67 46 -124v-372zM299 691c0 -58 -47 -105 -105 -105s-104 47 -104 105s46 104 104 104s105 -46 105 -104zM244 155v78h-35c-23 0 -40 -2 -55 -16c-13 -12 -21 -38 -21 -59c0 -47 19 -73 55 -73c32 0 56 27 56 70z
M240 691c0 25 -21 46 -46 46s-45 -21 -45 -46s20 -46 45 -46s46 21 46 46z" />
    <glyph glyph-name="ae" unicode="&#xe6;" horiz-adv-x="602" 
d="M567 233h-217c0 -60 3 -106 16 -125c8 -12 21 -21 40 -21c18 0 31 8 41 21c8 10 13 31 13 47h105c-2 -44 -14 -88 -44 -121c-27 -30 -69 -42 -115 -42c-35 0 -64 9 -89 26c-16 11 -30 26 -41 44c-13 -20 -26 -37 -42 -48c-19 -14 -43 -22 -76 -22c-44 0 -72 13 -99 44
c-21 25 -32 65 -32 118c0 48 17 90 49 118c26 23 60 36 121 36h47v74c0 39 -20 60 -51 60c-17 0 -29 -6 -37 -16c-10 -12 -14 -28 -14 -48h-106c0 42 12 81 45 114c25 25 68 43 111 43c33 0 65 -7 88 -24c7 -6 14 -13 19 -21c5 6 10 12 16 17c24 19 58 28 91 28
c44 0 82 -9 113 -42c51 -54 47 -161 48 -260zM244 155v78h-35c-23 0 -40 -2 -55 -16c-13 -12 -21 -38 -21 -59c0 -47 19 -73 55 -73c32 0 56 27 56 70zM461 311c0 54 -3 94 -15 109c-9 12 -21 21 -40 21s-31 -9 -40 -21c-12 -15 -16 -55 -16 -109h111z" />
    <glyph glyph-name="ccedilla" unicode="&#xe7;" horiz-adv-x="384" 
d="M356 155c-3 -50 -17 -95 -46 -124c-27 -27 -65 -39 -112 -39c-50 0 -94 13 -125 56c-33 45 -37 126 -37 216c0 89 4 170 37 216c31 43 75 55 125 55c45 0 80 -8 111 -37c33 -32 44 -80 47 -125h-105c-1 16 -3 35 -14 49c-8 12 -21 19 -39 19c-16 0 -32 -8 -41 -22
c-14 -24 -15 -77 -15 -155s1 -131 15 -156c9 -14 25 -21 41 -21c18 0 31 7 39 18c11 14 13 32 14 50h105zM243 -40l-53 -154h-76l61 154h68z" />
    <glyph glyph-name="egrave" unicode="&#xe8;" 
d="M407 233h-217c0 -60 3 -106 16 -125c8 -12 22 -21 41 -21c18 0 30 8 40 21c8 10 13 31 13 47h105c-2 -44 -14 -88 -44 -121c-27 -30 -68 -42 -114 -42c-49 0 -82 11 -114 43c-45 45 -49 133 -49 229s4 184 49 229c32 32 70 42 113 42c44 0 82 -9 113 -42
c51 -54 47 -161 48 -260zM301 311c0 54 -3 94 -15 109c-9 12 -21 21 -40 21s-31 -9 -40 -21c-12 -15 -16 -55 -16 -109h111zM268 587h-74l-87 139h89z" />
    <glyph glyph-name="eacute" unicode="&#xe9;" horiz-adv-x="394" 
d="M359 233h-217c0 -60 3 -106 16 -125c8 -12 22 -21 41 -21c18 0 30 8 40 21c8 10 13 31 13 47h105c-2 -44 -14 -88 -44 -121c-27 -30 -68 -42 -114 -42c-49 0 -82 11 -114 43c-45 45 -49 133 -49 229s4 184 49 229c32 32 70 42 113 42c44 0 82 -9 113 -42
c51 -54 47 -161 48 -260zM253 311c0 54 -3 94 -15 109c-9 12 -21 21 -40 21s-31 -9 -40 -21c-12 -15 -16 -55 -16 -109h111zM315 726l-87 -139h-74l72 139h89z" />
    <glyph glyph-name="ecircumflex" unicode="&#xea;" horiz-adv-x="394" 
d="M359 233h-217c0 -60 3 -106 16 -125c8 -12 22 -21 41 -21c18 0 30 8 40 21c8 10 13 31 13 47h105c-2 -44 -14 -88 -44 -121c-27 -30 -68 -42 -114 -42c-49 0 -82 11 -114 43c-45 45 -49 133 -49 229s4 184 49 229c32 32 70 42 113 42c44 0 82 -9 113 -42
c51 -54 47 -161 48 -260zM340 587h-81l-60 82l-59 -82h-81l99 139h83zM253 311c0 54 -3 94 -15 109c-9 12 -21 21 -40 21s-31 -9 -40 -21c-12 -15 -16 -55 -16 -109h111z" />
    <glyph glyph-name="edieresis" unicode="&#xeb;" horiz-adv-x="394" 
d="M359 233h-217c0 -60 3 -106 16 -125c8 -12 22 -21 41 -21c18 0 30 8 40 21c8 10 13 31 13 47h105c-2 -44 -14 -88 -44 -121c-27 -30 -68 -42 -114 -42c-49 0 -82 11 -114 43c-45 45 -49 133 -49 229s4 184 49 229c32 32 70 42 113 42c44 0 82 -9 113 -42
c51 -54 47 -161 48 -260zM253 311c0 54 -3 94 -15 109c-9 12 -21 21 -40 21s-31 -9 -40 -21c-12 -15 -16 -55 -16 -109h111zM337 597h-100v100h100v-100zM162 597h-100v100h100v-100z" />
    <glyph glyph-name="igrave" unicode="&#xec;" horiz-adv-x="210" 
d="M159 0h-106v527h106v-527zM154 587h-74l-87 139h89z" />
    <glyph glyph-name="iacute" unicode="&#xed;" horiz-adv-x="210" 
d="M159 0h-106v527h106v-527zM223 726l-88 -139h-74l72 139h90z" />
    <glyph glyph-name="icircumflex" unicode="&#xee;" horiz-adv-x="210" 
d="M159 0h-106v527h106v-527zM246 587h-81l-59 82l-60 -82h-81l99 139h83z" />
    <glyph glyph-name="idieresis" unicode="&#xef;" horiz-adv-x="210" 
d="M159 0h-106v527h106v-527zM243 597h-100v100h100v-100zM68 597h-100v100h100v-100z" />
    <glyph glyph-name="eth" unicode="&#xf0;" horiz-adv-x="400" 
d="M362 243c0 -84 -6 -157 -39 -199c-30 -39 -73 -52 -124 -52s-93 13 -123 52c-33 42 -39 115 -39 199c0 106 3 174 38 213c24 27 53 38 94 38c19 0 44 -6 60 -17l-30 92h-75v78h51l-23 65h107l22 -65h70v-78h-47l31 -101c18 -60 27 -116 27 -225zM256 245
c0 71 -2 117 -16 139c-8 13 -25 20 -41 20s-32 -7 -40 -20c-14 -22 -16 -68 -16 -139s2 -116 16 -138c8 -13 24 -20 40 -20s33 7 41 20c14 22 16 67 16 138z" />
    <glyph glyph-name="ntilde" unicode="&#xf1;" horiz-adv-x="417" 
d="M368 0h-106v379c0 41 -23 61 -52 61s-52 -20 -52 -61v-379h-106v527h102v-39c9 12 22 26 35 33c15 9 34 14 53 14c43 0 72 -13 96 -41c21 -24 30 -53 30 -114v-380zM358 641c-35 -35 -58 -46 -89 -46c-23 0 -40 4 -62 17c-15 9 -28 15 -44 15c-14 0 -26 -3 -46 -23
l-45 46c35 35 57 47 88 47c23 0 40 -4 62 -17c15 -9 28 -15 44 -15c13 0 25 3 45 23z" />
    <glyph glyph-name="ograve" unicode="&#xf2;" 
d="M408 264c0 -89 -4 -170 -37 -216c-31 -43 -74 -56 -125 -56s-94 13 -125 56c-33 46 -37 127 -37 216s4 170 37 216c31 43 74 55 125 55s94 -12 125 -55c33 -46 37 -127 37 -216zM302 264c0 78 -1 131 -15 155c-9 14 -25 22 -41 22s-32 -8 -41 -22
c-14 -24 -15 -77 -15 -155s1 -132 15 -156c9 -14 25 -21 41 -21s32 7 41 21c14 24 15 78 15 156zM269 587h-74l-87 139h89z" />
    <glyph glyph-name="oacute" unicode="&#xf3;" horiz-adv-x="396" 
d="M360 264c0 -89 -4 -170 -37 -216c-31 -43 -74 -56 -125 -56s-94 13 -125 56c-33 46 -37 127 -37 216s4 170 37 216c31 43 74 55 125 55s94 -12 125 -55c33 -46 37 -127 37 -216zM254 264c0 78 -1 131 -15 155c-9 14 -25 22 -41 22s-32 -8 -41 -22
c-14 -24 -15 -77 -15 -155s1 -132 15 -156c9 -14 25 -21 41 -21s32 7 41 21c14 24 15 78 15 156zM315 726l-87 -139h-74l72 139h89z" />
    <glyph glyph-name="ocircumflex" unicode="&#xf4;" horiz-adv-x="396" 
d="M360 264c0 -89 -4 -170 -37 -216c-31 -43 -74 -56 -125 -56s-94 13 -125 56c-33 46 -37 127 -37 216s4 170 37 216c31 43 74 55 125 55s94 -12 125 -55c33 -46 37 -127 37 -216zM254 264c0 78 -1 131 -15 155c-9 14 -25 22 -41 22s-32 -8 -41 -22
c-14 -24 -15 -77 -15 -155s1 -132 15 -156c9 -14 25 -21 41 -21s32 7 41 21c14 24 15 78 15 156zM340 587h-81l-60 82l-59 -82h-81l99 139h83z" />
    <glyph glyph-name="otilde" unicode="&#xf5;" horiz-adv-x="396" 
d="M360 264c0 -89 -4 -170 -37 -216c-31 -43 -74 -56 -125 -56s-94 13 -125 56c-33 46 -37 127 -37 216s4 170 37 216c31 43 74 55 125 55s94 -12 125 -55c33 -46 37 -127 37 -216zM254 264c0 78 -1 131 -15 155c-9 14 -25 22 -41 22s-32 -8 -41 -22
c-14 -24 -15 -77 -15 -155s1 -132 15 -156c9 -14 25 -21 41 -21s32 7 41 21c14 24 15 78 15 156zM345 641c-35 -35 -58 -46 -89 -46c-23 0 -40 4 -62 17c-15 9 -28 15 -44 15c-14 0 -26 -3 -46 -23l-45 46c35 35 57 47 88 47c23 0 40 -4 62 -17c15 -9 28 -15 44 -15
c13 0 25 3 45 23z" />
    <glyph glyph-name="odieresis" unicode="&#xf6;" horiz-adv-x="396" 
d="M360 264c0 -89 -4 -170 -37 -216c-31 -43 -74 -56 -125 -56s-94 13 -125 56c-33 46 -37 127 -37 216s4 170 37 216c31 43 74 55 125 55s94 -12 125 -55c33 -46 37 -127 37 -216zM254 264c0 78 -1 131 -15 155c-9 14 -25 22 -41 22s-32 -8 -41 -22
c-14 -24 -15 -77 -15 -155s1 -132 15 -156c9 -14 25 -21 41 -21s32 7 41 21c14 24 15 78 15 156zM337 597h-100v100h100v-100zM162 597h-100v100h100v-100z" />
    <glyph glyph-name="divide" unicode="&#xf7;" horiz-adv-x="457" 
d="M413 229h-369v101h369v-101zM291 403h-124v123h124v-123zM291 32h-124v123h124v-123z" />
    <glyph glyph-name="oslash" unicode="&#xf8;" horiz-adv-x="394" 
d="M367 571l-41 -95c31 -46 34 -127 34 -212c0 -89 -4 -170 -37 -216c-31 -43 -74 -56 -125 -56c-29 0 -55 4 -77 15l-21 -51h-71l41 96c-31 46 -34 127 -34 212c0 89 4 170 37 216c31 43 74 55 125 55c29 0 55 -4 77 -15l21 51h71zM235 429c-9 10 -23 16 -37 16
c-16 0 -32 -7 -41 -22c-15 -25 -16 -79 -16 -159c0 -23 1 -50 3 -60zM255 264c0 23 0 49 -3 59l-91 -225c9 -10 23 -16 37 -16c16 0 32 8 41 23c15 25 16 79 16 159z" />
    <glyph glyph-name="ugrave" unicode="&#xf9;" horiz-adv-x="417" 
d="M365 0h-101v40c-9 -12 -23 -26 -36 -33c-15 -9 -34 -15 -53 -15c-43 0 -72 13 -96 41c-21 24 -30 53 -30 114v380h106v-379c0 -41 23 -61 52 -61s52 20 52 61v379h106v-527zM249 587h-74l-87 139h89z" />
    <glyph glyph-name="uacute" unicode="&#xfa;" horiz-adv-x="417" 
d="M365 0h-101v40c-9 -12 -23 -26 -36 -33c-15 -9 -34 -15 -53 -15c-43 0 -72 13 -96 41c-21 24 -30 53 -30 114v380h106v-379c0 -41 23 -61 52 -61s52 20 52 61v379h106v-527zM335 726l-87 -139h-74l72 139h89z" />
    <glyph glyph-name="ucircumflex" unicode="&#xfb;" horiz-adv-x="417" 
d="M365 0h-101v40c-9 -12 -23 -26 -36 -33c-15 -9 -34 -15 -53 -15c-43 0 -72 13 -96 41c-21 24 -30 53 -30 114v380h106v-379c0 -41 23 -61 52 -61s52 20 52 61v379h106v-527zM350 587h-81l-60 82l-59 -82h-81l99 139h83z" />
    <glyph glyph-name="udieresis" unicode="&#xfc;" horiz-adv-x="417" 
d="M365 0h-101v40c-9 -12 -23 -26 -36 -33c-15 -9 -34 -15 -53 -15c-43 0 -72 13 -96 41c-21 24 -30 53 -30 114v380h106v-379c0 -41 23 -61 52 -61s52 20 52 61v379h106v-527zM171 597h-100v100h100v-100zM346 597h-100v100h100v-100z" />
    <glyph glyph-name="yacute" unicode="&#xfd;" horiz-adv-x="382" 
d="M377 527l-148 -594c-26 -106 -101 -118 -197 -118v94c46 1 81 5 94 55l9 37l-131 526h117l70 -359l69 359h117zM308 726l-87 -139h-74l72 139h89z" />
    <glyph glyph-name="thorn" unicode="&#xfe;" horiz-adv-x="411" 
d="M374 264c0 -114 -3 -188 -38 -231c-24 -29 -51 -41 -92 -41c-19 0 -39 5 -54 14c-11 6 -23 17 -31 28v-219h-106v897h102v-224c6 10 24 27 35 33c15 9 35 14 54 14c39 0 68 -11 92 -41c35 -43 38 -116 38 -230zM268 264c0 78 -2 131 -16 155c-9 14 -24 22 -40 22
c-13 0 -27 -5 -36 -14c-11 -11 -17 -27 -17 -50v-227c0 -23 6 -39 17 -50c9 -9 23 -13 36 -13c16 0 31 7 40 21c14 24 16 78 16 156z" />
    <glyph glyph-name="ydieresis" unicode="&#xff;" horiz-adv-x="382" 
d="M377 527l-148 -594c-26 -106 -101 -118 -197 -118v94c46 1 81 5 94 55l9 37l-131 526h117l70 -359l69 359h117zM155 597h-100v100h100v-100zM330 597h-100v100h100v-100z" />
    <glyph glyph-name="dotlessi" unicode="&#x131;" horiz-adv-x="210" 
d="M159 0h-106v527h106v-527z" />
    <glyph glyph-name="Lslash" unicode="&#x141;" horiz-adv-x="395" 
d="M372 0h-299v257l-47 -40v106l47 39v350h112v-260l93 78v-105l-93 -79v-245h187v-101z" />
    <glyph glyph-name="lslash" unicode="&#x142;" horiz-adv-x="272" 
d="M252 0c-49 0 -89 5 -124 32c-33 25 -54 65 -54 128v138l-52 -47v100l52 46v315h106v-229l53 47v-99l-53 -47v-218c0 -47 23 -71 72 -71v-95z" />
    <glyph glyph-name="OE" unicode="&#x152;" horiz-adv-x="642" 
d="M604 0h-288v27c-21 -21 -54 -35 -90 -35c-61 0 -105 24 -133 60c-45 58 -52 164 -52 304s5 247 52 304c29 36 72 60 133 60c36 0 71 -15 90 -35v27h288v-101h-187v-202h161v-101h-161v-207h187v-101zM309 356c0 130 -3 202 -24 236c-10 16 -27 27 -54 27s-43 -11 -53 -27
c-21 -34 -25 -106 -25 -236s4 -202 25 -236c10 -16 26 -27 53 -27s44 11 54 27c21 34 24 106 24 236z" />
    <glyph glyph-name="oe" unicode="&#x153;" horiz-adv-x="613" 
d="M578 233h-218c0 -60 3 -106 16 -125c8 -12 22 -21 41 -21c18 0 30 8 40 21c8 10 13 31 13 47h105c-2 -44 -14 -88 -44 -121c-27 -30 -68 -42 -114 -42c-37 0 -68 12 -91 31c-7 5 -12 12 -17 19c-5 -8 -11 -14 -18 -20c-23 -18 -57 -30 -93 -30c-51 0 -94 13 -125 56
c-33 46 -37 127 -37 216s4 170 37 216c31 43 74 55 125 55c36 0 71 -11 95 -31c6 -5 11 -11 15 -18c5 7 12 14 19 19c24 19 56 30 89 30c44 0 82 -9 113 -42c51 -54 48 -161 49 -260zM254 264c0 78 -1 131 -15 155c-9 14 -25 22 -41 22s-32 -8 -41 -22
c-14 -24 -15 -77 -15 -155s1 -132 15 -156c9 -14 25 -21 41 -21s32 7 41 21c14 24 15 78 15 156zM472 311c0 54 -4 94 -16 109c-9 12 -21 21 -40 21s-31 -9 -40 -21c-12 -15 -16 -55 -16 -109h112z" />
    <glyph glyph-name="Scaron" unicode="&#x160;" horiz-adv-x="442" 
d="M404 197c0 -73 -10 -122 -46 -157c-29 -28 -76 -47 -139 -47c-62 0 -108 17 -138 47c-34 34 -46 78 -46 153h112c0 -38 4 -62 20 -80c10 -11 27 -19 52 -19c26 0 43 7 54 20c15 17 19 41 19 79c0 76 -12 95 -67 117l-85 35c-72 30 -99 69 -99 179c0 64 19 116 58 151
c31 27 71 43 122 43c57 0 99 -15 128 -43c37 -36 50 -87 50 -155h-112c0 32 -2 57 -17 76c-10 13 -26 21 -50 21c-23 0 -37 -8 -48 -20c-13 -15 -19 -39 -19 -70c0 -58 9 -76 59 -96l84 -34c85 -35 108 -80 108 -200zM363 897l-99 -140h-84l-98 140h81l59 -82l60 82h81z" />
    <glyph glyph-name="scaron" unicode="&#x161;" horiz-adv-x="381" 
d="M352 152c0 -52 -20 -90 -47 -117c-32 -32 -70 -43 -115 -43s-89 15 -116 43c-31 32 -47 69 -47 119h105c0 -21 6 -38 18 -50c10 -11 26 -16 40 -16c17 0 29 4 41 15c10 9 15 25 15 42c0 15 -3 27 -11 39s-22 22 -41 30l-70 31c-36 16 -62 37 -77 61c-12 19 -17 43 -17 72
c0 51 18 84 46 113c29 29 70 44 114 44s84 -14 111 -40c28 -27 45 -64 45 -117h-104c0 23 -5 37 -15 48s-23 16 -37 16c-16 0 -30 -6 -39 -15c-10 -10 -15 -24 -15 -40c0 -13 2 -22 8 -31c7 -11 21 -22 39 -30l70 -30c36 -16 60 -33 77 -58c14 -20 22 -50 22 -86zM334 724
l-99 -140h-84l-98 140h81l59 -82l60 82h81z" />
    <glyph glyph-name="Ydieresis" unicode="&#x178;" horiz-adv-x="389" 
d="M388 712l-138 -433v-279h-112v279l-138 433h124l70 -282l71 282h123zM157 770h-100v100h100v-100zM332 770h-100v100h100v-100z" />
    <glyph glyph-name="Zcaron" unicode="&#x17d;" horiz-adv-x="373" 
d="M341 0h-310v84l194 527h-182v101h298v-84l-193 -527h193v-101zM331 897l-99 -140h-84l-98 140h81l59 -82l60 82h81z" />
    <glyph glyph-name="zcaron" unicode="&#x17e;" horiz-adv-x="325" 
d="M300 0h-273v80l154 353h-142v94h261v-79l-154 -353h154v-95zM311 724l-99 -140h-84l-98 140h81l59 -82l60 82h81z" />
    <glyph glyph-name="florin" unicode="&#x192;" horiz-adv-x="365" 
d="M342 624h-41c-30 0 -54 -20 -59 -50l-33 -186h75v-80h-90l-89 -493h-105l89 493h-52v80h67l33 192c17 97 88 139 161 139h44v-95z" />
    <glyph glyph-name="circumflex" unicode="&#x2c6;" 
d="M340 587h-81l-60 82l-59 -82h-81l99 139h83z" />
    <glyph glyph-name="caron" unicode="&#x2c7;" 
d="M340 724l-99 -140h-84l-98 140h81l59 -82l60 82h81z" />
    <glyph glyph-name="breve" unicode="&#x2d8;" 
d="M324 696c-4 -87 -61 -119 -125 -119s-120 32 -124 119h71c3 -34 26 -46 53 -46s51 12 54 46h71z" />
    <glyph glyph-name="dotaccent" unicode="&#x2d9;" 
d="M249 606h-99v100h99v-100z" />
    <glyph glyph-name="ring" unicode="&#x2da;" 
d="M304 691c0 -58 -47 -105 -105 -105s-104 47 -104 105s46 104 104 104s105 -46 105 -104zM245 691c0 25 -21 46 -46 46s-45 -21 -45 -46s20 -46 45 -46s46 21 46 46z" />
    <glyph glyph-name="ogonek" unicode="&#x2db;" 
d="M286 -194h-76l-53 154h68z" />
    <glyph glyph-name="tilde" unicode="&#x2dc;" 
d="M346 641c-35 -35 -58 -46 -89 -46c-23 0 -40 4 -62 17c-15 9 -28 15 -44 15c-14 0 -26 -3 -46 -23l-45 46c35 35 57 47 88 47c23 0 40 -4 62 -17c15 -9 28 -15 44 -15c13 0 25 3 45 23z" />
    <glyph glyph-name="hungarumlaut" unicode="&#x2dd;" 
d="M208 725l-67 -141h-70l47 141h90zM377 725l-67 -141h-69l46 141h90z" />
    <glyph glyph-name="endash" unicode="&#x2013;" horiz-adv-x="457" 
d="M413 238h-369v101h369v-101z" />
    <glyph glyph-name="emdash" unicode="&#x2014;" horiz-adv-x="711" 
d="M665 238h-618v101h618v-101z" />
    <glyph glyph-name="quoteleft" unicode="&#x2018;" horiz-adv-x="229" 
d="M172 594h-115v118l115 85v-203z" />
    <glyph glyph-name="quoteright" unicode="&#x2019;" horiz-adv-x="229" 
d="M172 594l-115 -86v204h115v-118z" />
    <glyph glyph-name="quotesinglbase" unicode="&#x201a;" horiz-adv-x="229" 
d="M172 0l-115 -85v203h115v-118z" />
    <glyph glyph-name="quotedblleft" unicode="&#x201c;" horiz-adv-x="418" 
d="M361 594h-116v118l116 85v-203zM172 594h-115v118l115 85v-203z" />
    <glyph glyph-name="quotedblright" unicode="&#x201d;" horiz-adv-x="418" 
d="M361 594l-116 -86v204h116v-118zM172 594l-115 -86v204h115v-118z" />
    <glyph glyph-name="quotedblbase" unicode="&#x201e;" horiz-adv-x="418" 
d="M361 0l-116 -85v203h116v-118zM172 0l-115 -85v203h115v-118z" />
    <glyph glyph-name="dagger" unicode="&#x2020;" horiz-adv-x="449" 
d="M405 439h-131v-439h-99v439h-131v88h131v185h99v-185h131v-88z" />
    <glyph glyph-name="daggerdbl" unicode="&#x2021;" horiz-adv-x="449" 
d="M405 0h-131v-185h-99v185h-131v89h131v350h-131v88h131v185h99v-185h131v-88h-131v-350h131v-89z" />
    <glyph glyph-name="bullet" unicode="&#x2022;" horiz-adv-x="446" 
d="M386 334c0 -90 -73 -163 -163 -163s-163 73 -163 163s73 163 163 163s163 -73 163 -163z" />
    <glyph glyph-name="ellipsis" unicode="&#x2026;" horiz-adv-x="654" 
d="M599 0h-123v123h123v-123zM179 0h-123v123h123v-123zM389 0h-123v123h123v-123z" />
    <glyph glyph-name="perthousand" unicode="&#x2030;" horiz-adv-x="1050" 
d="M685 112c0 -79 -59 -120 -127 -120s-127 41 -127 120v133c0 79 59 120 127 120s127 -41 127 -120v-133zM301 467c0 -79 -59 -120 -127 -120s-127 41 -127 120v133c0 79 59 120 127 120s127 -41 127 -120v-133zM1003 112c0 -79 -58 -120 -126 -120s-127 41 -127 120v133
c0 79 59 120 127 120s126 -41 126 -120v-133zM532 712l-248 -712h-82l248 712h82zM214 469v129c0 31 -16 45 -40 45s-41 -14 -41 -45v-129c0 -31 17 -45 41 -45s40 14 40 45zM917 114v129c0 31 -16 45 -40 45s-41 -14 -41 -45v-129c0 -31 17 -45 41 -45s40 14 40 45z
M598 114v129c0 31 -16 45 -40 45s-40 -14 -40 -45v-129c0 -31 16 -45 40 -45s40 14 40 45z" />
    <glyph glyph-name="guilsinglleft" unicode="&#x2039;" horiz-adv-x="231" 
d="M185 27l-161 249l161 248v-158l-61 -90l61 -92v-157z" />
    <glyph glyph-name="guilsinglright" unicode="&#x203a;" horiz-adv-x="231" 
d="M207 276l-160 -249v157l60 92l-60 90v158z" />
    <glyph glyph-name="fraction" unicode="&#x2044;" horiz-adv-x="125" 
d="M226 712l-246 -712h-82l246 712h82z" />
    <glyph glyph-name="Euro" unicode="&#x20ac;" horiz-adv-x="498" 
d="M459 189c-2 -64 -23 -119 -59 -152c-32 -29 -70 -45 -123 -45c-68 0 -107 26 -137 60c-34 38 -48 94 -50 183h-58v81h56v80h-56v81h58c2 89 17 145 50 183c30 34 69 60 137 60c54 0 93 -16 125 -46c35 -33 55 -87 57 -150h-112c-1 47 -12 95 -70 95
c-27 0 -45 -11 -55 -27c-14 -22 -18 -48 -19 -115h106v-81h-109v-80h109v-81h-106c1 -67 5 -93 20 -115c10 -15 27 -27 54 -27c58 0 69 49 70 96h112z" />
    <glyph glyph-name="trademark" unicode="&#x2122;" horiz-adv-x="631" 
d="M581 275h-70v263l-56 -171h-40l-55 168v-260h-70v437h63l82 -225l83 225h63v-437zM240 647h-73v-372h-70v372h-72v65h215v-65z" />
    <glyph glyph-name="minus" unicode="&#x2212;" horiz-adv-x="295" 
d="M249 238h-202v101h202v-101z" />
    <glyph glyph-name="fi" unicode="&#xfb01;" horiz-adv-x="463" 
d="M252 446h-73v-446h-106v446h-54v81h54v33c0 62 20 101 53 127c35 27 77 33 126 33v-95c-50 0 -73 -20 -73 -71v-27h73v-81zM411 0h-106v527h106v-527zM417 594h-117v117h117v-117z" />
    <glyph glyph-name="fl" unicode="&#xfb02;" horiz-adv-x="501" 
d="M252 446h-73v-446h-106v446h-54v81h54v33c0 62 20 101 53 127c35 27 77 33 126 33v-95c-49 0 -73 -23 -73 -71v-27h73v-81zM483 0c-49 0 -89 5 -124 32c-33 25 -54 65 -54 128v552h106v-546c0 -47 23 -71 72 -71v-95z" />
    <glyph glyph-name="eurocurrency" horiz-adv-x="560" 
d="M491 141l-65 -66l-57 56c-26 -15 -56 -25 -89 -25s-63 10 -90 25l-56 -56l-66 66l57 56c-16 26 -25 56 -25 89s9 64 25 90l-57 56l66 66l56 -56c27 15 57 24 90 24s63 -9 89 -24l57 56l65 -66l-56 -56c15 -26 25 -57 25 -90s-10 -63 -25 -89zM369 286c0 49 -40 90 -89 90
s-89 -41 -89 -90s40 -89 89 -89s89 40 89 89z" />
    </font>
</defs>
</svg>
